Inferno 2016 Torrent

0 / 3087
Inferno 2016 Torrent

Inferno 2016 HD-CAM x264 Torrent

Inferno 2016 Torrent


When Robert Langdon wakes up in an Italian hospital with amnesia, he teams up with Dr. Sienna Brooks, and together they must race across Europe against the clock to foil a deadly global plot.

Director: Ron Howard
Writers: Dan Brown (based on the novel by), David Koepp (screenplay)
Stars: Tom Hanks, Felicity Jones, Irrfan Khan
Genres: Action | Adventure | Crime | Drama | Mystery | Thriller
Country: USA | Japan | Turkey | Hungary
Language: English

::iNFORMATION::
Language: English
Source: SPA

Format : Matroska
File size : 1.44 GiB
Duration : 1 h 54 min
Overall bit rate mode : Variable
Overall bit rate : 1 803 kb/s

Video
ID : 1
Format : AVC
Format/Info : Advanced Video Codec
Format profile : [email protected]
Format settings, CABAC : Yes
Format settings, ReFrames : 4 frames
Codec ID : V_MPEG4/ISO/AVC
Duration : 1 h 54 min
Bit rate mode : Variable
Bit rate : 1 609 kb/s
Maximum bit rate : 62.5 Mb/s
Width : 720 pixels
Height : 396 pixels
Display aspect ratio : 16:9
Frame rate mode : Constant
Frame rate : 29.970 (30000/1001) FPS
Color space : YUV
Chroma subsampling : 4:2:0
Bit depth : 8 bits
Scan type : Progressive
Bits/(Pixel*Frame) : 0.188
Stream size : 1.29 GiB (89%)
Default : Yes
Forced : No
Color range : Full
Color primaries : BT.709
Transfer characteristics : BT.709
Matrix coefficients : BT.709

Audio
ID : 2
Format : MPEG Audio
Format version : Version 1
Format profile : Layer 3
Codec ID : A_MPEG/L3
Codec ID/Hint : MP3
Duration : 1 h 54 min
Bit rate mode : Constant
Bit rate : 192 kb/s
Channel(s) : 2 channels
Sampling rate : 44.1 kHz
Frame rate : 38.281 FPS (1152 spf)
Compression mode : Lossy
Delay relative to video : 5 ms
Stream size : 157 MiB (11%)
Writing library : LAME3.99.5
Default : Yes
Forced : No


▶ INFERNO – Official Trailer (HD)


♦ Inferno 2016 Torrent

¶ Inferno 2016 HD-CAM x264 Torrent

  • – Inferno 2016 HD-CAM x264 2.0-ViVO torrent

( Size : 1.46 GB )

Download Torrent

Inferno 2016 Torrent



¶ Note: Open Website On Browser internet explorer or Opera to Enter categories Torrents, as: mangajoy.com/category/movies ¶ Contact: [email protected]

Related Posts

Leave a Reply

Your email address will not be published. Required fields are marked *

Time limit is exhausted. Please reload CAPTCHA.